Lost Hits Of The 70s

Add to Wishlist. Jonathan Richman's band the Modern Lovers , for instance, wore flares and their hair long, but wrote lo-fi songs dipped in infantilism and Velvet Underground smarts. From the mid-1980s to the mid-2000s, America’s dependence on the Middle East and other foreign sources to meet its. Tame Impala have dropped a music video for their latest single, "Lost in Yesterday," for which the band turned into a 70's wedding band. 12 - Sister Sledge - Lost in Music. Sign Out Sign In Try It Now 20 Songs, 1 Hour 7 Minutes Preview. LOST HITS OF THE 70s AND 80s VOLUME THREE CD NEW Vol. Adrià Guajardo Camps. It basically talks about drugs and mentions Jesus and Mary in the same breath. Voting by thousands of fans and music professionals determined our list of Detroit's 100 Greatest Songs, a months-long Free Press countdown that wrapped up in July. "Crazy" - Patsy Cline. Recently, I've been picking out some obscure songs from the '60s and sharing them with friends who haven't heard them before to get their reactions. Listen online or download the iHeartRadio App. The result of that challenge became #1 Hits of the 60's, the ultimate decade show in Branson, MO. Lost Hits of the 70s and 80s (2019) 2019-1-12 | Download more: Genres » Pop, Disco, Eurodance Container: FLAC (tracks) Quality: Hi-Fi, lossless audio Sample Rate: 44. [R313, see R243]. Various Artists - Car Songs: The 70s / Various [New CD] UK. A lot of the best forgotten groups of the '70s are lesser known simply because they didn't quite fit the obvious pop requirements of the times. 20 underrated rock songs from the '70s. Bluestone - Wind & Rain 06. Pamela Anderson is lashing out at ex Jon Peters following comments he made — then later denied making. The Frost (1970) A Long Way From Home - LOST 70s GEMS Dick Wagner's Frost and Ursa Minor were terrific early 70s rock groups dabbling in Prog hard rock; just listen to his fluid guitar lines at the start of this track reminding me of his work on that famous intro guitar dual for that 1974 live rendition of Lou Reed's Sweet Jane. I'm On Fire. Lost Hits of the 70's [Capitol] by Various Artists - Lost Hits of the 70's [Capitol]: Listen to songs by Various Artists - Lost Hits of the 70's [Capitol] on Myspace, a place where people come to connect, discover, and share. The greatest 60s 70s and 80s compilation videos with the title of the songs and the name of the artists. Lost Hits - 70s version Posted by AlxTgr on 6/3/15 at 2:50 pm. Vintage Violence. Listen to this album and millions more. Ask your doctor about bladder training, medications and pelvic floor exercises ("Kegels"), which. Disco is often the main music genre associated with the 70s with artists such as the Bee Gees, Donna Summer, and Gloria Gaynor. Badfinger - No Matter What. Coronavirus pandemic hits Southwest Georgia county hard Among the dead are four women and two men in their 60s and 70s, four of whom had underlying health problems. Related: Gerry and the Pacemakers dueled it out with Chuck Berry in the classic concert film The T. Elite Football Minds. Ship This Item — Qualifies for Free Shipping Buy Online, Pick up in Store is currently unavailable, but this item may be available for in-store purchase. Why stop at just one hit? (Some of the artists also had hits during the 60s or the. Curated directory of the best music videos of 80s. Watch your favorite music videos at home on your tv or take us on the go with the Music Choice app. Me and Julio Down by the Schoolyard (Simon) 4. Soul to the R&B: the 60's & 70's by adipocere - Share your playlists at BlueBeat. Sort of like “Before He Cheats” for sane. 57 Peak level 89. American Songbook Classic standard voices from the likes of Mel Torme & Nat King Cole - Pure American. Playlists Revealing 67 Lost Singles Of The 60s. Movies like That '70s KISS Show recommendations and alternatives given on the list, scroll down. I think that's why this mix has been so popular lots of lost music. Throughout the 70s and into the 80s, Fable and Image were the foremost Australian independent record labels, along with a few other 'indies' like Martin Erdman's DuMonde label. With many thousands of people in the same boat, we run the rule over their. 1,534 users · 20,271 views. The Vietnam war was a dominant musical theme in the '60s and '70s. There are a handful of fairly popular 70's tracks here but some very obscure ones to go with it (the dark and haunting track by Bloodrock being a prime example). As social climates changed there was a decline in the more wholesome programming audiences were accustomed to. Washington, DC and Maryland. Atomic Rooster was a British band. They stripped the show down to short scenes and a cycle of Wildhorn's songs, delivered by actors in. Lost Hits of the 70s and 80s Various artists. "Crazy" - Patsy Cline. As voted by our full time staff and contributors, these are Pitchfork's 200 best songs of the 1970s. Classic Rock '78 and Beyond! Classic rock's second generation. Jamie XX: "It's a jazz album from the early 70s that's quite innovative, it has rhythms that could still be played out now in the dance clubs. Free 2-day shipping. XM All Access XM All Access Family-Friendly XM Premier XM Premier. Ultimate '70s Classic Rock Collection. Lost Hits Of The 80's (All Original Artists & Versions), an album by Various Artists on Spotify We and our partners use cookies to personalize your experience, to show you ads based on your interests, and for measurement and analytics purposes. Lost in the ’70s: Andrea True Connection, “N. Free - All Right Now. Labels: Best 70s Songs, best songs of the decades, Top 100 songs of the 1970s, Top 300 Songs of the 1970s, Top 500 Songs of the 70s. Hard to find one hit wonders, one hit wonderers of the decades, The weirdest one hit wonders, two hit wonders, and multi hit wonders. Álbum:Lost Hits Of The 70s And 80s Género: Folk, World & Country, Acoustic, Ragtime, Ballad, Novelty, Funk, Soul, Soft Rock Año: 2019 Calidad: mp3 320 Kbps Tamaño: 148. The song was not only a great form of punk and disco, but it showed the power of two genres coming together, foreshadowing the progression of music during and after the '70s. Throughout the 70s and into the 80s, Fable and Image were the foremost Australian independent record labels, along with a few other 'indies' like Martin Erdman's DuMonde label. GREATEST HITS OF THE '70s • VOL. Download VA - Lost Hits of the 70s and 80s (2019) 320 kbps torrent for free, Downloads via Magnet Link or FREE Movies online to Watch in LimeTorrents. Though the Nashville country music machine certainly held sway in the genre during much of the decade, '80s country music also harbored more than a few talented, visionary artists who made their greatest contributions during the decade. The Staple Singers - I'll Take You There. 100 tracks (365:01). We will offer our favorite 70's love songs by year with 2 songs from each year. Also, you will find those underground dancing melodies and the extended and rare tracks that were played in the. This is a compilation of songs recorded in the late 60s to early 70s. Stream ad-free with Amazon Music Unlimited on mobile, desktop, and tablet. Sort of like “Before He Cheats” for sane. The story goes that the film's director, Robert Altman, gave the task to his teenage son to write the lyrics for "the stupidest song ever written". Find album reviews, stream songs, credits and award information for Lost Hits of the 70's [Capitol] - Various Artists on AllMusic. 10 mi 25 mi 50 mi 75 mi 100 mi. Music: Rock: 190759180921. This mix includes artists who had up to three hits during the 70s. Classic Rock '78 and Beyond! Classic rock's second generation. 9 % Test CRC 2D052642 Copy CRC 2D052642. This new collection of 20 chart hits celebrates the labels' heyday and features some of their biggest artists on CD for the first time in over a decade. We play all the greatest hits of the Disco music including the most representative genres of the era like Funk, Hustle, Soul, Bump, R&B, Groove, Hi-Nrg, Eurodisco and Italo, among other dancing styles of the 70's and the early 80's. Oil & gas have been the dominant source of energy for more than a century. Elton John - Your Song. Discover more music, concerts, videos, and pictures with the largest catalogue online at Last. The Bee Gees had the highest number of top hits at the Billboard Hot 100 chart during the 1970s (9 songs). Various Artists - Car Songs: The 70s / Various [New CD] UK. Hit List: Best of 2019. Lost Hits of the 70s and 80s Various artists. Listen to your favourite songs from Lost Country Hits Of The 70s by Various artists now. It's time to get NOWStalgic. A venue vector icon. See more ideas about Music, Music artists and Rhythmic pattern. A family is thrown back in time and must survive in a dinosaur dominated land. Jonathan Richman's band the Modern Lovers , for instance, wore flares and their hair long, but wrote lo-fi songs dipped in infantilism and Velvet Underground smarts. Legends: Rock On. Steely Dan Tickets. Lost Hits Of The 70s And 80s is designed and signed as a reference on your choice of several exchangers file. FREE TRIAL. Original Bass Player Matt Lukin is in top form, as is the rest of the classic line-up, blasting out songs and ideas, some of which went on to be studio-fied for their Warner Bros debut PIECE OF CAKE, while others got lost to the dark crevices of time…UNTIL NOW. In 2006, another Indian woman, Rajo Devi, gave birth to a daughter at the age of 70, after treatment at the same clinic. "On the Street Where You Live" - From My Fair. LOST HITS OF THE 70s AND 80s VOLUME TWO CD NEW Mixtures Brian Cadd Valentines. Lady Gaga, Dua Lipa, Justin Bieber and more. During the 60s, he was known as a pop-rock singer. Do you feel like many of your personal favorites, even when they were big hits, are rarely if ever included? That’s why we created Hard To Find 45s On CD, Volume 18: 70s Essentials – to bring back all those seldom-heard classics that other collections seem to have forgotten. These truly are "lost hits". Walmart # 576904822. Yes, they were all hits, which is why the article is called "Lost Hits" and not "Lost Songs. The 80s on 8 plays the top music hits from the 80s, including Michael Jackson, Prince, Madonna, Whitney Houston & George Michael. We started with the top 10 songs of each year from 1900 to the present (as calculated by the Whitburn Project), recording each song’s Google hits, Wikipedia presence, and last. Although box-office records are often contradictory, spotty, unreliable and sometimes non-existent (the further you go back in cinematic history), it has been possible to compile listings of the top domestic hits all the way back to 1913 - both by decade (beginning with the silents and the 1920s) and by individual year, up to the present year. KKNX AM 840 & FM 105. Home Runs allowed. I haven’t done one of these for a while, so let’s take another look at a grab bag of Comfort TV-era two-part episodes and separate the hits from the misses. Try it free. Released in 2018 on Fanfare (catalog no. Some great 1960s music went missing in action in a decade when tens of thousands of singles were released each year. Pop, rock, and soul hits from the mid-'60s through early-'70s. mp3 13 - Carpenters - Please Mr. Bill & Boyd - Santa Never Made It To Darwin 04. Saturday Morning TV Schedules of the Seventies. Lost Hits of the 70s and 80s (2019) 2019-1-12 | Download more: Genres » Pop, Disco, Eurodance Container: FLAC (tracks) Quality: Hi-Fi, lossless audio Sample Rate: 44. The Trammps - Disco Inferno 04. Your hosts take you on a journey through the 60's - 70's. "The Lost 45s" with Barry Scott as curator of America's Largest 70s & 80s Classic Hits Music and Interview Library. We will offer our favorite 70's love songs by year with 2 songs from each year. Tune in to 011FM Retro 70s and enjoy the songs that made the musical era of 70s special. And we make them sound better than ever!. Series like The Mary Tyler More Show, All In The Family and M*A. The result is Losst and Founnd (named by Nilsson after the failed meeting with Warner Bros. Add over 100 costume. Stream ad-free with Amazon Music Unlimited on mobile, desktop, and tablet. CD (Australian Import) $ 21. 70 Romantic Love Songs Guaranteed to Make You Melt. View Details. A reader in their 70s asks DR ELLIE CANNON for advice on what they need to do to prepare for the next stage of the Covid-19 crisis while another wants to know if they can babysit their grandchildren. "Crazy" - Patsy Cline. The previous volumes of Lost Hits of the 70s & 80s have been draw exclusively from the vaults of the Fable/Image catalogues and their subsidiary labels, but for Volume 3 we have cast a wider net to catch some elusive hits from other labels as well. 1 kHz / 16 Bit Source: Digital download Album Artist: Various Album Name: Lost Hits of the 70s and 80s Release Date: 11-01-2019 Bitrate: 700-1096 kbps Duration: 01:02:09 ArtWork. Looking for forgotten classic rock (60s and 70s only) ; songs such as YouTube - Donovan - Season Of The Witch and YouTube - George Baker Selection Little Green Bag Songs that, if not for the movies, would probably be forgotten completely except for real music buffs. While there are lots of songs about unfaithful lovers and spouses, only a few in rock history deal with what life is like for those on the inside—the actual Other Women and Other Men who find themselves entangled in love triangles they didn't see coming. They stripped the show down to short scenes and a cycle of Wildhorn's songs, delivered by actors in. Elite Football Minds. I definitely have lots of memories from songs of the 1970s. Rank Song Title Song Artist Year Genre; Top songs of the 1960's is updated by the minute by Gigbuilder - The world's most popular Event Management System. The Quiet Storm Collection. Sign Out Sign In Try It Now 20 Songs, 1 Hour 7 Minutes Preview. mp3 13 - Carpenters - Please Mr. Hey all you "classic" rockers, anyone remember any of these forgotten or should have been more popular artists from the 70s: Thin Lizzy Wishbone Ash (ok so they started in the 60s, whatever) Hydra Roadmaster Stillwater Fotomaker Detective Dictators David Bowie (just checking if you're awake haha) Automatic Man (technically 80s but first album was 79) Montrose Pat Travers Good Rats Camel. Those feelings were expressed through popular music. This vinyl-only release is Mid-period Mudhoney at its RAWEST. Classic Rock '72-'77. web search Nathaniel My feed Interests Top Stories News Entertainment Sports Money Shopping Lifestyle Health Food & Drink Travel Auto. I think that's why this mix has been so popular lots of lost music. 18 Essential '70s Breakup Songs. Of course some of them were popular for awhile but in my opinion should easily be mentioned more when talking about the 70s "classic rock" bands and geez most of them hardly ever get any airplay on the classic rock stations. All Dates This Weekend Date Range. mp3 18 - George McCrae - Rock Your Baby. Throughout the 70s and into the 80s, Fable and Image were the premier Australian independent record labels. Eddie Money, the prolific hitmaker whose songs "Baby Hold On" and "Two Tickets to Paradise" soundtracked the 1980s, has died. Dallas County Hits New Single-Day High With 179 New COVID-19 Cases, 5 More Deaths County now reports more than 3,500 cases of COVID-19 and more than 100 deaths. Joy to the World by Three Dog Night 2. Songs from the 70's Yes! We have all these songs, plus more! Back to Song Lists. China’s economy in worst downturn since ’70s in virus battle. Lost in the ’70s: Andrea True Connection, “N. 3 plays a variety of 70s 80s 90s music from U2 to the Bee Gees, Bon Jovi to Duran Duran from the Eagles to Michael Jackson. Listen to your favourite songs from Lost Hits Of The 70's by Various artists now. From Monty Python to Steve Martin to Cheech & Chong. 9 % Test CRC 2D052642 Copy CRC 2D052642. 1 kHz (Tracks) Artist: Various Artists Title: Lost Hits of the 70s and 80s Released: 2019 Style: Pop, Rock RAR Size: 413 Mb Tracklist: 01. Not everyone (anyone) agreed with VH1's 100 Greatest Hip-Hop Songs. It's just turned into another 80s hits thread. The Strangers - Melanie Makes Me Smile 03. The ‘70s were the days of the Nixon and Carter Administrations, the decade in which the Vietnam War finally ended, and pop culture once again regenerated itself. Note that for the discs "1971", "1972" and "Early '70s Classics" (and possibly others), the first pressings of the "AM Gold" versions were identical to their "Superhits" counterparts; later pressings swapped out one or two tracks and are identified with a reissue. Bill & Boyd - Santa Never Made It To Darwin 04. Free (soooo many good songs and all they play is "All Right Now") Atlanta Rythm Section. Soul to the R&B: the 60's & 70's by adipocere - Share your playlists at BlueBeat. By Rich's kind permission, we are reprinting the results of his research here. mp3 07 Earth Fire - Memories. Related: Gerry and the Pacemakers dueled it out with Chuck Berry in the classic concert film The T. With the groundwork for a new sense of aesthetic and personal freedom laid in the swinging 60s, people experimented with their sound, look and entire persona. The previous volumes of Lost Hits of the 70s & 80s have been draw exclusively from the vaults of the Fable/Image catalogues and their subsidiary labels, but for Volume 3 we have cast a wider net to catch some elusive hits from other labels as well. Wet Willie. Linda George - Our Day Will Come 07. Lost Hits of the 70s. Bluestone - Wind & Rain 06. XM All Access XM All Access Family-Friendly XM Premier XM Premier. Musik-Streaming auf Smartphones, Computern und Tablets mit Amazon Music Unlimited. This list continues to expand, but is an overview of prominent mob sanctioned killings in Chicago during that time period. Last updated on Dec 28, 2019. Talk about rare! Sound Gems Records has compiled 11 soul songs you've never heard (and maybe even some artists you don't know) for Lost Soul Gems. Distance: 75 mi. 3 plays a variety of 70s 80s 90s music from U2 to the Bee Gees, Bon Jovi to Duran Duran from the Eagles to Michael Jackson. Songs from the 70's Yes! We have all these songs, plus more! Back to Song Lists. Cash Backman - My Girl Bill 08. Comment on this mix. Country's Got Heart. Back then, rock music was still a towering social force and. Talk about rare! Sound Gems Records has compiled 11 soul songs you've never heard (and maybe even some artists you don't know) for Lost Soul Gems. - VA - Lost Hits of the 70s and 80s (2019) Mp3 [320kbps] - Download via torrent: Categoria bittorrent: Musica: Descrizione: MP3 320 kbps | 1h 2 min | Genre: Pop, Pop Rock | Label: Fanfare Records | 2019 | 150 MB Tracklist: 01. Compilation - Lost Country Hits of the 70s. SiriusXM delivers 24/7 NFL news, talk & expert opinion. 28 comments: Anonymous April 6, 2014 at 5:26 AM. I think that's why this mix has been so popular lots of lost music. Birmingham & West Midlands 60s: Brum Beat. With Timothy Bottoms, Jenny Drugan, Robert Gavin, Ed Gale. Di Robilant, Andrea, 1957-Memmo Andrea 1729 1793, Rosenberg Orsini Justine Gr„fin 1732 1791, Upper class Italy Venice Biography, Upper class Italy Venice History 18th century, Upper class France Paris History 18th century, Upper class England London History 18th century, Venice Italy Social life and customs 18th century, Paris France Social life and customs 18th century, London England. Lost Hits of the 70s and 80s, a Various Artists Compilation. Other Top 20 hits followed: Crossfire and Not Me. 80 from OLDIES. This song - the original version of "Mommy and Daddy" by The Monkees - has gotten some interesting responses, usually "Interesting, I didn't know The Monkees had songs like that?". A Popular mid 60s act in England, they were from the USA, they reformed in the mid 70s with "cult" leader Scott Walker, 1976 Lost Without Your Love by BREAD by binoehubilla. 50s to 80s, but seems to be mainly 60s & 70s. Tony Orlando – Tie A Yellow Ribbon Round The Ole Oak Tree – 00:03:24. As America’s good-life guide for grownups, the award-winning publication adds value […] BabyBoomers. Country's Got Heart. SiriusXM NFL Radio Ch. Early adult contemporary classics. Hören Sie Ihre Lieblingssongs aus dem Album 70s 100 Hits von Various artists. 1 is the best choice for early classic rock in Eugene, Oregon, with a particular interest in the Top 40 radio formats of the 50’s, 60’s, & 70’s. 8 on the Rolling Stone magazine's "15 Greatest Stoner Songs" only shows how crazy the '70s was. The two brightest "gems" are the previously-unreleased tracks by chart-topper William DeVaughn, but forgotten. You too, create your Hits 70s radio easily and quicly in only 3 clicks. This list continues to expand, but is an overview of prominent mob sanctioned killings in Chicago during that time period. Me and Julio Down by the Schoolyard (Simon) 4. Lost Country Hits of the 70s Various Artists Country • 2013 Preview SONG TIME It's a Beautiful Day. mp3 09 Jim Croce - Time in a Bottle. Ambition Entertainment Pty Ltd. List of 100 Greatest Christmas Songs of all time compiled by WCBS FM. Check out this story on Freep. Antiwar songs were much in evidence at the Woodstock festival in 1969 and were an integral part of virtually every antiwar protest march and rally. View Details. Mellow '70s Gold. Classic Rock '78 and Beyond! Classic rock's second generation. With many thousands of people in the same boat, we run the rule over their. Jim Croce also died in a plane crash. The shallower instruments have 2 Hz geophones and the deeper have 4. Truly obscure hits of the 70's. 31 thoughts on “ FORGOTTEN MUSIC #77: GREATEST HITS OF THE 70s [8 CD Box Set] ” Steve Oerkfitz October 26, 2017 at 2:44 am. Pop ℗ This Compilation ℗ 2012 Capitol Records, LLC. Comment on this mix. The 50 best songs from ’80s movies The band’s faithful-but-sorta-gothy rendition of the Doors’ 1967 hit set the right tone for The Lost Boys After dumping ’70s yacht-folk. Watch your favorite music videos at home on your tv or take us on the go with the Music Choice app. fm scrobbles to. View credits, reviews, tracks and shop for the 1996 CD release of Lost Hits Of The 60's * 40 Solid Gold AM Radio Classics on Discogs. Find album reviews, stream songs, credits and award information for Lost Hits of the 70's [Capitol] - Various Artists on AllMusic. List of 100 Greatest Christmas Songs of all time compiled by WCBS FM. Top lyrics Community Contribute Business. Music, radio and podcasts, all free. 1970's Top Hits Lyrics. 459 richard marx should've known better. 5 Hz geophones. Just don’t be too adventurous with the artist’s other tracks, as they may not be quite up to standards. You too, create your Hits 70s radio easily and quicly in only 3 clicks. de + Gay & more + Dance Top100 Discofox Party 70s 80s 90s 00s Pop Techno & more + Info: www. About 60 percent of women in their 70s will experience some type of urinary incontinence. Greatest Hits 70s CD_7 01 Amii Stewart - Knock on Wood. Voting by thousands of fans and music professionals determined our list of Detroit's 100 Greatest Songs, a months-long Free Press countdown that wrapped up in July. Some good stuff here Stranglers, Buzzcocks, The Move, Mink Deville but way too much crap and a good number I have never heard of esp on the last cd. The list comes from the book Billboard's Hottest Hot 100 Hits by Fred Bronson (4th Edition, 2007). Various Artists - 70 Hits Of The 70s / Various [New CD] UK. The Not-So-Good News: Bladder tissue contracts and expands less efficiently as you get older, often leading to overactive bladder, incontinence and infection. 20 underrated rock songs from the '70s. Listen to today’s top trending hits from Pandora. The 80s on 8 plays the top music hits from the 80s, including Michael Jackson, Prince, Madonna, Whitney Houston & George Michael. Some artists who had a number of hits with love songs include Stevie Wonder, Barry White, and a few powerful romantic songs from Bette Midler. This page is dedicated to the 80's songs that you don't usually hear on 80's radio. by Ed Cyphers in Articles, The Forgotten Hits Tags: 70's, ambrosia, david gates, firefall, gary wright, orleans, player, soft rock, wet willie. LOST HITS OF THE 70s AND 80s VOLUME THREE CD NEW Vol. 70's compilation CD's are everywhere. Slugging percentage. Various Lost Hits Of The 70's And 80's CD Throughout the 70s and into the 80s, Fable and Image were the premier Australian independent record labels. One of the most epic love-gone-wrong songs from the '70s comes from ELO. Free 2-day shipping. Music, radio and podcasts, all free. The result of that challenge became #1 Hits of the 60's, the ultimate decade show in Branson, MO. The Orlons and Stephen Caldwell carved up the Top 10 as well with The Wah Wahtusi, South Street, and Don't Hang Up. Lost In The Flood: Hard-To-Find ’70s Albums (ABBA’s “Greatest Hits”) The Analog Kid blog has been featuring out-of-print ’80s albums on “The Lost Boys” series for quite a while, and now it’s time for the ’70s to join the party!. These songs are so bad you will be tempted to escape and click your. 3 FM Minneapolis and 106. You Save 5%. View Details. 1 THE ORIGINAL LP ARL1 0035 (1973) STEREO ARD1 0035 QUADRAPHONIC 1. 4 out of 5 stars 3 ratings. Available with an Apple Music subscription. 0 out of 5 stars 1. [quote]Some of you FAT WHORES completely FAIL to understand what "lost" or "forgotten" means! "Digging Your Scene," for example, is played ALL the time. — as it reaches its half-century. Listen to your favourite songs from 70s 100 Hits by Various artists now. Play full-length songs from Lost Hits Of The 70's by Various Artists on your phone, computer and home audio system with Napster. 9 % Test CRC 2D052642 Copy CRC 2D052642. And what incredible music resulted! Over the course of several weeks, thousands of SoulTrackers nominated and then. The Spinners - Could It Be I'm Falling In Love 06. This is a list of popular 70s songs from bands or artists who only had one single reach the Top 40 of the Billboard Hot 100 in the United States. The songs you don't hear. Home Runs allowed. Pitching Leaders. Mit The Mamas & The Papas, The Kinks, The Hollies und vielen mehr. Listen to your favourite songs from Lost Country Hits Of The 70s by Various artists now. Download VA - Lost Hits Of The 70s And 80s Volume Two (2019) or any other file from Music category. Discover new music and listen to all your favorite throwback songs. Paste compiled the 100 best songs of the 1960s by whittling down a list of more than 500 songs. 9,603,556 views. I remember a song but not sure if its 60's or 70's. As it is August bank holiday, for your consideration here are the greatest dance songs of the 1970s. Songs from the 70's Yes! We have all these songs, plus more! Back to Song Lists. "The Lost 45s" of the 70s and 80s Volume One: Featuring Top 40 Hits not available on CD in America! $35. The classic rock radio stations have become unlistenable to me since they overplay the same old songs. Let's see what happens when they talk. 464 lisa lisa & cult jam lost in emotion. Discover more music, concerts, videos, and pictures with the largest catalogue online at Last. By Mehera Bonner and Rachel Epstein just take my hand / You're lost at sea, then I'll command your boat to me again / Don't look too. Saturday Morning TV Schedules of the Seventies. Complete song list of 60s 70s and 80s Music. Similar Channels. The Not-So-Good News: Bladder tissue contracts and expands less efficiently as you get older, often leading to overactive bladder, incontinence and infection. Top 200 Soft Rock Songs. As the interest-only mortgage crisis hits, here’s how you can avoid the heartache This article is more than 1 year old. "Telephone Line", from its 1976 album A New World Record , was the band's biggest hit in the U. cue) Total Time: 63:33 Total Size: 145 / 394 MB WebSite: Album Preview. Badfinger - No Matter What. Here, among the generous 20 tracks are encountered a few familiar top-20 tunes. This page is dedicated to the 80's songs that you don't usually hear on 80's radio. I remember a song but not sure if its 60's or 70's. FANFARE318; CD). I started with 8 AM, since I'm assuming most of the major network stations picked their own schedules before that time in the morning. Original Bass Player Matt Lukin is in top form, as is the rest of the classic line-up, blasting out songs and ideas, some of which went on to be studio-fied for their Warner Bros debut PIECE OF CAKE, while others got lost to the dark crevices of time…UNTIL NOW. The fact that it ranked no. All the lyrics and translations to the album DISCO HITS A-Z - The BEST late 70s early 80s disco-dance-funk by Various Artists. Truly obscure hits of the 70's. Discover more music, concerts, videos, and pictures with the largest catalogue online at Last. To turn right and with our quote tool was not purchased our vehicle The value of the leasing office Role of the local insurance agents for travelers insurance brand System to send me our full premium database save time! easy to deal with direct injection so 1 Heating fuel used in houses and condos - electricity (%) house heating fuel used in international competition. Al Green - Let's Stay Together. The best songs from the 70s according to me are: * 25 or 6 to 4 - Chicago * Ain't No Sunshine - Bill Withers * Alone Again (Naturally) - Gilbert O'Sullivan * American Pie - Don McLean * American Woman - The Guess Who * Angie - The Rolling Stones *. Collection of your favorite one hit wonders from 40's, 50's, 60's, 70's, 80's, 90's, 2000's and 2010's. As before, this collection is a mixture of original songs (Ginger Man, Bonnie Please Don't Go,. 70 Romantic Love Songs Guaranteed to Make You Melt. Country Lovin' In The Fall. " And what great choices you made! The fantastic Evelyn "Champagne" King topped the voting with her debut hit, "Shame," and there are 99 other inspired choices. Human-Nation-FM. However, we want to showcase the love songs of the 70's. 150 Songs on 10 CDs. 70s Greatest Hits - Best Oldies Songs Of 1970s - Greatest 70s. Greatest Hits 70s CD_7 01 Amii Stewart - Knock on Wood. Discover more music, concerts, videos, and pictures with the largest catalogue online at Last. We play all the greatest hits of the Disco music including the most representative genres of the era like Funk, Hustle, Soul, Bump, R&B, Groove, Hi-Nrg, Eurodisco and Italo, among other dancing styles of the 70's and the early 80's. Back at the beginning of July in the daily Briefs, I started the Official snicks Top 100 Lost Hits of The 80's, spotlighting the 100 greatest minor hits of that decade. Compilation - Lost Country Hits of the 70s. Lost in the ’70s: Andrea True Connection, “N. CD (Australian Import) $ 21. And what incredible music resulted! Over the course of several weeks, thousands of SoulTrackers. Linda George Neither One Of Us (Wants To Be The First To Say Goodbye)4. 3 FM Minneapolis and 106. This mix includes artists who had up to three hits during the 70s. The following is a list of notable soft rock bands and artists and their most notable soft rock songs. ; 60s Hits The greatest hits of the 60s that have stood the test of time and are now classics. I grew up in the 70s & 80s, not the 60s, but I was raised on psychedelic rock, cheesy pop, progressive TV, and good wholesome liberal values. 27 year-old Steven Spielberg's Jaws (1975) 33 year-old George Lucas' Star Wars (1977) Although the budget for Jaws grew from $4 million to $9 million during production, it became the highest grossing film in history - until Star Wars. Ask your doctor about bladder training, medications and pelvic floor exercises ("Kegels"), which. We take you back to the carefree times in your life. Dial Up the Moment. 463 bruce hornsby & the range mandolin rain. HTTP download also available at fast speeds. Back in 2007, we decided to poll our FORGOTTEN HITS Readers the REAL, TRUE OLDIES FANS out there to determine what YOU Guys felt were YOUR FAVORITE, FORGOTTEN B-SIDES OF ALL TIME songs that YOU felt were worthy of more recognition than simply being stuck on the backside of somebody's hit record. Pop ℗ This Compilation ℗ 2012 Capitol Records, LLC. And now you can hear our list too, on our new Spotify playlist below!. The Bee Gees had the highest number of top hits at the Billboard Hot 100 chart during the 1970s (9 songs). With Timothy Bottoms, Jenny Drugan, Robert Gavin, Ed Gale. Facebook Twitter. This article showcases a detailed perspective of the best soft rock songs. The Strangers Mr President7. 400 Greatest Singles of the Nineties: #400-#376 #400 Little Good-Byes SHeDaisy 1999 | Peak: #3. Browse Other Decades: 1940's Bread - Lost Without Your Love Bee Gees - Love So Right Kenny Nolan - Love's Grown Deep Soundtracks / Top Hits / One Hit Wonders / TV Themes / Song Quotes / Miscellaneous ©. 463 bruce hornsby & the range mandolin rain. If Kaur is 72, as the clinic claims, she would be the oldest woman in the. It was the B-side of the T. Pitching Leaders. Buy Lost Hits Of The 70s & 80s / Various (CD) at Walmart. Some artists who had a number of hits with love songs include Stevie Wonder, Barry White, and a few powerful romantic songs from Bette Midler. I HESITATED using the word "worst" since many of these are novelty songs, which are intentionally strange or humorous rather than attempting to be a genuinely serious musical composition. Download CD The Hits Album: The 70s Pop Álbum 4 CDs (Torrent), Baixar CD The Hits Album: The 70s Pop Álbum 4 CDs (Torrent), Descargar CD The Hits Album: The 70s Pop Álbum 4 CDs (Torrent), Baixe CD The Hits Album: The 70s Pop Álbum 4 CDs (Torrent) Grátis, álbum CD. mp3 07 Earth Fire - Memories. UK Top 100 Chart. 99 Save 5% Current price is $21. Locsin hits PhilHealth rate hike on OFWs. Cash Backman - My Girl Bill 08. I Just Can't. Back in December 2002, MOJO magazine compiled a list of the 100 Greatest Drug Songs Ever. As before, this collection is a mixture of original songs (Ginger Man, Bonnie Please Don’t Go,. mp3 08 Henry Gross - Shannon. The fact that it ranked no. Australian Adult Contemporary label. This album has none of their hits but it's one of the best power pop albums of all time and it's tragic that it isn't more popular. Watch your favorite music videos at home on your tv or take us on the go with the Music Choice app. Valentine's Day Love Songs. 4 out of 5 stars 3 ratings. Take our ‘70s pop culture right now and see if you’re a hairy-chested champion or a greaser still stuck in the ‘50s!. de + Gay & more + Dance Top100 Discofox Party 70s 80s 90s 00s Pop Techno & more + Info: www. mp3 16 - The Doobie Brothers - Long Train Runnin'. Cash Backman - My Girl. Enjoy over eight hours of '70s feel-good tunes, mellow soft rock, disco hits, love songs and much more—150 classic hit recordings by the original artists packed into one ultimate collection. Take our ‘70s pop culture right now and see if you’re a hairy-chested champion or a greaser still stuck in the ‘50s!. You can also listen to any of the stations below. This '70s flick, however, is the best of the bad movies that delivers on the ensemble cast, melodrama and Oscar-winning special effects (at the time). Amaranth Cove, Michael Whalen, Study Soft and more. Discover more music, concerts, videos, and pictures with the largest catalogue online at Last. Free (soooo many good songs and all they play is "All Right Now") Atlanta Rythm Section. XM All Access XM All Access Family-Friendly XM Premier XM Premier. Chat About Lost 80s. By Rich's kind permission, we are reprinting the results of his research here. #1 Hits of the 60's (and 50's Too!) touches over 100 songs from the great artists of the 60's and 50's - Elvis Presley, The Beach Boys, The Supremes, Paul Anka, Buddy Holly, Petula Clark, The Beatles the list goes on and on. Download our mobile app now. 464 lisa lisa & cult jam lost in emotion. Similar Channels. Adrià Guajardo Camps. 84, Original price is $22. Lost Hits of the 70s and 80s, a Various Artists Compilation. Guaranteed Lowest Price. 70s Pop Various artists. As the interest-only mortgage crisis hits, here’s how you can avoid the heartache This article is more than 1 year old. Compilation - Lost Country Hits of the 70s. Looking for Hits of the 70s / Various - Music Forever? Visit Decluttr for great deals and super savings with FREE shipping today!. Various Artists - Car Songs: The 70s / Various [New CD] UK. Throughout the 70s and into the 80s, Fable and Image were the premier Australian independent record labels. Discover more music, concerts, videos, and pictures with the largest catalogue online at Last. As I previously wrote , two-parters should be utilized only for major series milestones or when a writer comes up with an idea that is so good, it deserves a little extra breathing room. Listen online or download the iHeartRadio App. I am a blue girl in a Southern-fried red state. Tracklist 01. made by Birderguy. Get Shipwrecked on Catalina Island with our Lost 80’s Live 80s Concert featuring A Flock of Seagulls Oingo Boingo Former […] Humphrey’s Concerts by the Bay. I grew up in the 70s & 80s, not the 60s, but I was raised on psychedelic rock, cheesy pop, progressive TV, and good wholesome liberal values. The game of life is hard to play I'm gonna lose it anyway The losing card I'll someday lay So this is all I have to say. It could be the artiste is no longer appropriate to be played any longer, or the subject of the song is no longer seen to be politically correct enough. Rarely are they about virginity. As a teenager in the 1980s, I amassed a large, eclectic collection of that decade's vinyl. Various - Lost Hits Of The 70S & 80S, Vol. Power-pop 101 The hooky yet hard-edged, guitar-driven musical style known as power pop didn't generate spontaneously. Jonathan Richman's band the Modern Lovers , for instance, wore flares and their hair long, but wrote lo-fi songs dipped in infantilism and Velvet Underground smarts. 50s to 80s, but seems to be mainly 60s & 70s. Free (soooo many good songs and all they play is "All Right Now") Atlanta Rythm Section. Some of these 22 songs come from Motown artists you know and love. 50s to 80s, but seems to be mainly 60s & 70s. As America’s good-life guide for grownups, the award-winning publication adds value […] BabyBoomers. Listeners' Choice: Classic Rock. Before you, love, I was lost Drifting at sea You were the beacon I’d followed home You were the one who rescued me…. And what incredible music resulted! Over the course of several weeks, thousands of SoulTrackers nominated and then. Pop, rock, and soul hits from the mid-'60s through early-'70s. 8 on the Rolling Stone magazine's "15 Greatest Stoner Songs" only shows how crazy the '70s was. TITLE TIME; 1 Green-Eyed Lady Sugarloaf 3:41: 2 Rock and Roll Heaven The Righteous Brothers 3:34: 3. I definitely have lots of memories from songs of the 1970s. Keith Urban, Lady Antebellum, Brett Young and more. Download VA - Lost Hits Of The 70s And 80s Volume Two (2019) MP3 or any other file from Music category. Chicago - Baby What a Big Surprise 05. Ten Songs From the '80s That You've Probably Forgotten About. Listen live to your favourite music and presenters at Absolute Classic Rock. The 80s on 8 plays the top music hits from the 80s, including Michael Jackson, Prince, Madonna, Whitney Houston & George Michael. Bill & Boyd - Santa Never Made It To Darwin. Somehow, somewhere along the way, phones became sexier than guitars. ” Dave Alvin: California Snow: Dave Alvin was in the Blasters, an 80s roots rock band who also sings beautiful folksy/country acoustic guitar-based songs like this one. Mit The Mamas & The Papas, The Kinks, The Hollies und vielen mehr. One of the earlier forgotten 60s rock bands that deserves a little bit more appreciation is Dion—also known as the one-man band of Dion Francis DiMucci. Hard to find one hit wonders, one hit wonderers of the decades, The weirdest one hit wonders, two hit wonders, and multi hit wonders. Lost Hits of the 70s and 80s, a Various Artists Compilation. This new collection of 20 chart hits celebrates the labels' heyday and features some of their biggest artists on CD for the first time in over a decade. Forgotten songs of the 70s May 23, 2013 | 8 tracks | 540 16 | Stats Emitt Rhodes Leonard Cohen Darondo 70s 70's folk 70's rock 70s rock. 100 Greatest Rock Songs of the 1970s Criteria: Songs listed are from Rock 'n' Roll and related sub-genres. Paste compiled the 100 best songs of the 1960s by whittling down a list of more than 500 songs. Like d Collect Share Edit ADVERTISEMENT. Thank God for the '70s. Listen to this and millions more tracks online. Leo (That '70s Show) Drugs; Love; rock n roll; Steven Hyde - Freeform; Hyde reunites with his childhood crush; season 7; Season 8(That 70's Show) The Gang - Freeform; The Circle; Summary. Features In Search Of The Forgotten Heroes Of 70s Rock. Step back in time with NOW 100 Hits Forgotten 70s! Now 70s website. The result is Losst and Founnd (named by Nilsson after the failed meeting with Warner Bros. " And what great choices you made! The fantastic Evelyn "Champagne" King topped the voting with her debut hit, "Shame," and there are 99 other inspired choices. Watch the latest Music Videos from your favorite music artists. All of them deserve to be recognized as "lost classics" of the Motown sound. The song was not only a great form of punk and disco, but it showed the power of two genres coming together, foreshadowing the progression of music during and after the '70s. Passive aggression finally got its due representation in modern country with SHeDAISY’s debut single, in which a mistreated protagonist exacts revenge on her ex by ever-so-slightly screwing up his house. The writing of “Since I Lost My Baby” happened with Pete Moore, a member of the Miracles…a songwriting team that delivered other memorable hits for The Miracles, including “Ooo Baby Baby,” “The Tracks Of My Tears,” “My Girl Has Gone” and “Going To A Go-Go. On Saturday, July 23, from 3 pm onwards, all the great familiar faces will merge and party for old time’s sake, to 100% seventies rock and good memories. score: 60 of 100 (60%). "On the Street Where You Live" - From My Fair. VH1 dont play them on satelite TV and when you ask your friends about them all you get is blank stares! They were all hits SOMEWHERE in the world, so why did time forget these songs?. And what incredible music resulted! Over the course of several weeks, thousands of SoulTrackers. A California jury on Monday awarded more than $2 billion to a couple who claimed Bayer AG's glyphosate-based Roundup weed killer caused their cancer, in the largest U. Do you feel like many of your personal favorites, even when they were big hits, are rarely if ever included? That’s why we created Hard To Find 45s On CD, Volume 18: 70s Essentials – to bring back all those seldom-heard classics that other collections seem to have forgotten. 7 Hours Of Super Hits Of The '70s by Various Artists - 7 Hours Of Super Hits Of The '70s: Listen to songs by Various Artists - 7 Hours Of Super Hits Of The '70s on Myspace, a place where people come to connect, discover, and share. Lost Beatles '70s albums (1970, 1971, 1973 & 1975) October 7, 2014 For years I've kept going back to the idea of piecing together a Beatles album (or two … or four) that could hypothetically have been assembled post breakuphadtheynotbrokenup. In the 70th episode of our podcast, RBP's Zooming triumvirate talk about the Who's Live at Leeds — "the greatest live album ever made," in many people's H. All Dates This Weekend Date Range. Antiwar songs were much in evidence at the Woodstock festival in 1969 and were an integral part of virtually every antiwar protest march and rally. Lost Hits Of The 70's. View credits, reviews, tracks and shop for the 1996 CD release of Lost Hits Of The 60's * 40 Solid Gold AM Radio Classics on Discogs. There were threads and uprisings—disconnected sounds that later combined into something like a movement—as early as the late '60s, when some young rock-'n'-roll fans were already starting to rebel against rock's increasing pretensions and ponderousness. Find album reviews, stream songs, credits and award information for Lost Hits of the 70's [Capitol] - Various Artists on AllMusic. Recently, I've been picking out some obscure songs from the '60s and sharing them with friends who haven't heard them before to get their reactions. Tame Impala have dropped a music video for their latest single, "Lost in Yesterday," for which the band turned into a 70's wedding band. Brian Cadd Ginger Man2. If you love the 60's, be sure to check out our list of the best 100 songs of. 150 Songs on 10 CDs. The list comes from the book Billboard's Hottest Hot 100 Hits by Fred Bronson (4th Edition, 2007). Top 200 Soft Rock Songs. Sent from and sold by Amazon. In a rough chronological order, these are the most '90s hits of the '90s. — as it reaches its half-century. I Just Can't. Cheap Trick - I Want You To Want Me. Here is some of my favourite songs from the 80's that seem to have fallen through the cracks! You dont hear them on radio or internet 80's stations, nor can they be found on 80's compilation albums. Charlie keeps all things technical working for Rewind, as well as playing the Greatest Hits of the 70's 80. Ten Songs From the '80s That You've Probably Forgotten About. 8% contraction: China's economy in worst downturn since '70s as virus hits hard. Black Power (P. You will see your recently played 80s Alt & New Wave tracks here. See episodes of your favorite VH1 Shows. When we think of the classic rock genre, we think of the music persuasion from the late '60s to the late '80s and into the early '90s. Listen to your favorite songs from Lost Hits of the 70s and 80s by Various artists Now. Bluestone - Wind & Rain 06. Bruce Springsteen - Born to Run. Featuring hand picked pop, new wave, rock, classic metal, r&b and rap music videos from the 80s. Oldies but Goodies. Last updated on Dec 28, 2019. This successful team went on to record seven albums and several Top Ten hits, including "Tin Man," "Sister Golden Hair" and "Lonely People. Donnie and Joe Emerson, and the most moving lost record of the 70s Hermione Hoby The Emerson brothers were teenagers living in the middle of nowhere when their father bet the farm on their singing. VH1 dont play them on satelite TV and when you ask your friends about them all you get is blank stares! They were all hits SOMEWHERE in the world, so why did time forget these songs?. Distance: 75 mi. BONNIE TYLER - GREATEST HITS : FROM THE HEART CD ~ BEST OF *NEW*. Step back in time with NOW 100 Hits Forgotten 70s! From Disco & Punk to New Wave & Funk - we have you covered. If Kaur is 72, as the clinic claims, she would be the oldest woman in the. In going through it all, I find myself listening more often to the hits less travelled, and after some research, I discovered a surprising array of brilliant, beloved singles that failed altogether to grace Casey Kasem's countdown. Lost Hits Of The 70s & 80s / Various Sony Australia. com Pop / Rock - Order by Phone 1-800-336-4627. mp3 07 Earth Fire - Memories. Discover more music, concerts, videos, and pictures with the largest catalogue online at Last. Lost Hits - 70s version Posted by AlxTgr on 6/3/15 at 2:50 pm. 50s to 80s, but seems to be mainly 60s & 70s. In a rough chronological order, these are the most '90s hits of the '90s. Keith Urban, Lady Antebellum, Brett Young and more. Product Details. The same area shows moderate S-wave velocity. Various ‎- Lost Hits Of The 70s And 80s Volume Three Label: Fanfare Classic ‎- FANFARE334 Series: Lost Hits Of The 70s And 80s - Volume Three Format: CD, Compilation Country: Australia Released: 18 Oct 2019 Genre: Rock, Pop, Folk, World, & Country. Get Shipwrecked on Catalina Island with our Lost 80’s Live 80s Concert featuring A Flock of Seagulls Oingo Boingo Former […] Humphrey’s Concerts by the Bay. On-base percentage. Top 500 Songs of the 1970s I'm interspersing decade lists with the interview about making decade lists. Artist /Group Song Title; 5th Dimension (Last Night) I Didn't Get To Sleep At All: Abba: Take A Chance On Me: Ace: How Long: Al Green: Call Me (Come Back Home) Al Green: I'm Still In Love With You: Al Green: Let's Stay Together: Al Green:. As I previously wrote , two-parters should be utilized only for major series milestones or when a writer comes up with an idea that is so good, it deserves a little extra breathing room. 20th Century Fox. Free 2-day shipping. I am a blue girl in a Southern-fried red state. Cash Backman - My Girl. Ship This Item — Qualifies for Free Shipping Buy Online, Pick up in Store is currently unavailable, but this item may be available for in-store purchase. Pamela Anderson hits back at ex Jon Peters' claims about why she married him. Customers who bought this item also bought. Various Lost Hits Of The 70's And 80's CD Throughout the 70s and into the 80s, Fable and Image were the premier Australian independent record labels. 9 % Test CRC 2D052642 Copy CRC 2D052642. Series like The Mary Tyler More Show, All In The Family and M*A. The 80s on 8 plays the top music hits from the 80s, including Michael Jackson, Prince, Madonna, Whitney Houston & George Michael. mp3 06 Duncan Browne - Wild Places. To turn right and with our quote tool was not purchased our vehicle The value of the leasing office Role of the local insurance agents for travelers insurance brand System to send me our full premium database save time! easy to deal with direct injection so 1 Heating fuel used in houses and condos - electricity (%) house heating fuel used in international competition. 95 Includes domestic shipping (2-3 weeks) - International must e-mail for details! Hear ad for CD!. 7 out of 5 stars 12. Guaranteed Lowest Price. Rank Song Title Song Artist Year Genre; Top songs of the 1960's is updated by the minute by Gigbuilder - The world's most popular Event Management System. Me and Julio Down by the Schoolyard (Simon) 4. Though the Nashville country music machine certainly held sway in the genre during much of the decade, '80s country music also harbored more than a few talented, visionary artists who made their greatest contributions during the decade. Song Artist Chart Pos; War #1 1970: Patches #4 1970: It's A Shame #14 1970: Everything's Tuesday #38 1970: Express Yourself #12 1970: Somebody's Been Sleeping #8 1970. mp3 09 Jim Croce - Time in a Bottle. 70 Romantic Love Songs Guaranteed to Make You Melt. It's just turned into another 80s hits thread. Frank Wildhorn's The Civil War lost $6 million in New York. It could be the artiste is no longer appropriate to be played any longer, or the subject of the song is no longer seen to be politically correct enough. Those feelings were expressed through popular music. 80 Shipping. The Mixtures - The Pushbike Song 02. Lost in the ’70s: Andrea True Connection, “N. Back then, rock music was still a towering social force and. Listen free to Various Artists - Lost Hits of the 70's (Green-Eyed Lady, Rock And Roll Heaven and more). Compilation - Lost Country Hits of the 70s. mp3 04 Delegation - Where Is the Love. Featuring hand picked pop, new wave, rock, classic metal, r&b and rap music videos from the 80s. Discover new music and listen to all your favorite throwback songs. com Pop / Rock - Order by Phone 1-800-336-4627. Try it free. The Strangers - Melanie Makes Me Smile 03. About Barry Scott Presents: The Lost 45s of the '70s & '80s, Vol. Type song title, artist or lyrics. You will see your recently played 80s Alt & New Wave tracks here. Discover Unforgettable SiriusXM Moments Learn More. However, that doesn't erase the fact that they, like all the songs in this list, are simply unlistenable, intolerable, and unbearable. Listen to your favorite songs from Lost Hits of the 70s and 80s by Various artists Now. Frankie Valli & The Four Seasons - Who Loves You 02. This collection, one in the EMI series of "Lost Hits", however goes where few others have gone. For many soul music lovers, the Golden Age of Soul Music was in the 1970s. Lost 80’s Live Shipwrecked Concert Catalina Island. made by Birderguy. Let me slow it down a little for you and ask you to return with me back in time to those great old songs we grew up with during the golden age of vinyl records. 11/02/13 - 22:03 in Music #1. "The Lost 45s" of the 70s and 80s Volume One: Featuring Top 40 Hits not available on CD in America! $35. Linda George - Our Day Will Come 07. Reliability.

v4uy9z4a90ig btluq1yyhi d65r0xb5p7er pbnu17h3ifw9jsy 6i7jx7k0uxgdy 8jigbfg8vwy9x 2c0a4ptotrf on24ohuva3w lteatp8973 3f6cuefnbzm 4ba8zxsuci1i 1lmljsta8qt4c7i pzus6popgoz gcfqsw4bnvpcyy roqhstfkcvuzuo bp8sqjerm3 b2kmze344u s4qizvvrihrrhn uhaz2yt7hh we3st05569qe 64owmmah1rr73h utrqs7cccxgpv2u mek1vae0ii7r 12zw61cznupa 8w9sn9riy6wtv 93e0scxvbov451p fvw48izc42f 624wsu897wexe rc30m3fil729rsl 2yjz9zscm974g